臥心: 1462|指鹸: 4

仝けいおん!!々イメ`ジソング 拍表 - EP/拍表(CV:晩麭徨)[WAV+CUE+LOG]

[鹸崙全俊]
窟燕噐 2014-10-29 09:48:31 | 塋照何促蚊 |堋響庁塀


‐汽爆初府/

k喩妝2010定9埖21晩
梧最鑄裡CV哉專厮徨
鯉PCCG-01066 1,365飽z)

TVアニメ仝けいおん!!々のキャラクタ`・イメ`ジソングついに鞠魁! 及2、惑鑄 (CV: 晩麭剩徨)!!
バンドとしてのVoS爆と、宥械のキャラクタ`ソング、みんなと慌宥で梧うS爆のVerの柴3爆уh嚠協!

‐辺村爆朕/

1 楳敢Vibration
2 n腎のモノロ`グ
3 Come with Me!! (Ver.)
4 楳敢Vibration (Instrumental)
5 n腎のモノロ`グ (Instrumental)
6 Come with Me!! (Instrumental)

及屈遍犁浦談
Exact Audio Copy V1.0 beta 3 from 29. August 2011  EAC extraction logfile from 27. October 2014, 13:55  拍表(CV:晩麭徨) / 仝けいおん!!々イメ`ジソング 拍表 - EP  Used drive  : TSSTcorpDVD+-RW SN-208BB   Adapter: 0  ID: 0  Read mode               : Secure Utilize accurate stream : Yes Defeat audio cache      : Yes Make use of C2 pointers : No  Read offset correction                      : 0 Overread into Lead-In and Lead-Out          : No Fill up missing offset samples with silence : Yes Delete leading and trailing silent blocks   : No Null samples used in CRC calculations       : Yes Used interface                              : Native Win32 interface for Win NT & 2000  Used output format : Internal WAV Routines Sample format      : 44.100 Hz; 16 Bit; Stereo   TOC of the extracted CD       Track |   Start  |  Length  | Start sector | End sector      ---------------------------------------------------------         1  |  0:00.00 |  3:37.52 |         0    |    16326            2  |  3:37.52 |  4:29.37 |     16327    |    36538            3  |  8:07.14 |  3:34.20 |     36539    |    52608            4  | 11:41.34 |  3:36.52 |     52609    |    68860            5  | 15:18.11 |  4:28.27 |     68861    |    88987            6  | 19:46.38 |  3:31.49 |     88988    |   104861      Range status and errors  Selected range       Filename C:\Users\低漁\Desktop\拍表(CV-晩麭徨) - 仝けいおん!!々イメ`ジソング 拍表 - EP.wav       Peak level 97.7 %      Extraction speed 3.6 X      Range quality 100.0 %      Copy CRC 0F712BA7      Copy OK  No errors occurred  End of status report  ------------------------------------------------------------  Exact Audio Copy V1.0 beta 3 from 29. August 2011  EAC extraction logfile from 27. October 2014, 13:55  拍表(CV:晩麭徨) / 仝けいおん!!々イメ`ジソング 拍表 - EP  Used drive  : TSSTcorpDVD+-RW SN-208BB   Adapter: 0  ID: 0  Read mode               : Secure Utilize accurate stream : Yes Defeat audio cache      : Yes Make use of C2 pointers : No  Read offset correction                      : 0 Overread into Lead-In and Lead-Out          : No Fill up missing offset samples with silence : Yes Delete leading and trailing silent blocks   : No Null samples used in CRC calculations       : Yes Used interface                              : Native Win32 interface for Win NT & 2000  Used output format : Internal WAV Routines Sample format      : 44.100 Hz; 16 Bit; Stereo   TOC of the extracted CD       Track |   Start  |  Length  | Start sector | End sector      ---------------------------------------------------------         1  |  0:00.00 |  3:37.52 |         0    |    16326            2  |  3:37.52 |  4:29.37 |     16327    |    36538            3  |  8:07.14 |  3:34.20 |     36539    |    52608            4  | 11:41.34 |  3:36.52 |     52609    |    68860            5  | 15:18.11 |  4:28.27 |     68861    |    88987            6  | 19:46.38 |  3:31.49 |     88988    |   104861      Range status and errors  Selected range       Filename C:\Users\低漁\Desktop\拍表(CV-晩麭徨) - 仝けいおん!!々イメ`ジソング 拍表 - EP.wav       Peak level 97.7 %      Extraction speed 3.6 X      Range quality 100.0 %      Copy CRC 0F712BA7      Copy OK  No errors occurred  End of status report



嗄人泌惚艇勣臥心云愉咨茄坪否萩指鹸

廬徭http://www.tsdm.net/forum.php?mod=viewthread&tid=520120&extra=page%3D1

窟燕噐 2014-11-21 14:12:22 栖徭返字 | 塋照何促蚊
mio議梧駅倬辺恠
窟燕噐 2017-8-19 21:38:30 | 塋照何促蚊
湖仍促麼蛍蹌。。。。。。。
窟燕噐 2018-8-5 17:32:15 | 塋照何促蚊
湖仍促麼蛍蹌。。。。
窟燕噐 2018-9-29 00:13:43 | 塋照何促蚊
湖仍促麼蛍蹌宸倖載嗤喘
[侑塰縞囑] zenn壓朔鑄化扮逸帋趣指瓜欠患恠議坪丗帋僕zenn匯倖詢罵蘯24 佛腎衛 侑塰茨 / 縫舞茨
艇俶勣鞠村朔嘉辛參指愉 鞠村 | QQ廣過

云井持蛍号夸

弌菜塁|Archiver|佛腎利

Powered by Discuz! , Design by Seraphoenix && 臼臼≦.

GMT+8, 2020-5-29 04:42 , Processed in 0.415752 second(s), 28 queries .

Copyright © 2009 - ∞ Seikuu. All Rights Reserved.

酔堀指鹸 卦指競何 卦指双燕