查看: 465|回复: 4

[转载][度盘秒传]应援雪菜![白色相簿2 原声CD 无损压制~雪菜~等][SACD/WAV+BK][?]

[复制链接]
发表于 2022-1-12 11:36:58 | 显示全部楼层 |阅读模式
本帖最后由 otomene 于 2022-1-21 15:13 编辑

相信大家一定看到了2022年动画游戏资源专区 选美赛规则总贴,咱为 C组 小木曾 雪菜应援(拉票)。
由于大赛规定一个角色只能发一帖,所以关于《WHITE ALBEUM 2(白色相簿 2)》的歌曲或配乐等内容咱就发在这里了。

otomene:咱希望能通过应援,首先让大家了解《WHITE ALBEUM 2(白色相簿 2)》,然后慢慢喜欢上《WHITE ALBEUM 2(白色相簿 2)》。当然,如果各位不喜欢该作和相关产物也没关系的。应援(拉票)嘛,都不强求。不过,如果各位能因为听了《WHITE ALBEUM 2(白色相簿 2)》的歌曲,而把宝贵的一票投给“C组 小木曾 雪菜”,咱表示由衷的感谢,难得又找到一名喜欢雪菜或者是《WHITE ALBEUM 2(白色相簿 2)》系列物的朋友!

otomene:关于度盘秒传,不会使用(下载)的朋友问咱就是(可在本帖上回帖,也可以论坛发短消息)。

otomene歌曲下载后不会播放、找不到播放软件的朋友也可以问咱(可在本帖上回帖,也可以论坛发短消息)。

[120824]WHITE ALBUM 2-Original Sound track setsuna
CD封面图:




内含曲目:
1.届かない恋 (无法传达的爱恋 Live at CampusFes)(Live at Campus Fes)
2.WHITE ALBUM Live at Campus Fes (白色相簿)
3.Feeling Heart
4.夢想歌
5.Routes
6.あなたを想いたい (想念你)
7. 舞い落ちる雪のように (犹如漫天飘舞的雪花)
8.POWDER SNOW (粉雪)(弾き語り)
9.ヒトリ (孤独/翻成“一个人”可能更好)
10.SOUND OF DESTINY Live at Campus Fes (命运之声)
11.君をのせて (伴随着你)
12.I hope so...
13.深愛(otomene:此歌个人推荐原唱“水树奈奈”版的,后面有发)
14.届かない恋 (无法传达的爱恋 Valentine Live)(无法传达的爱恋 情人节现场版 otomene:极力推荐!)
15.時の魔法 (时间的魔法)(acoustic version)

[SACDRipper][サントラ][120824]WHITE ALBUM 2-Original Sound track setsuna(dsd64 raw iso+cue+bk rr5)
百度网盘秒传下载:(单CD,大小:2.81GB)
6a38de5609983d5eef5d0bc74e3d48e1#c62abc9a69478e39ec6bad19088a7d9a#3020226145#[SACDRipper][サントラ][120824]WHITE ALBUM 2-Original Sound track setsuna(dsd64 raw iso+cue+bk rr5).zip

[EAC] [120824] WHITE ALBUM2 Original Soundtrack ~setsuna~ (wav+cue+png+mcdisc)
百度网盘秒传下载:(双CD无损压制,WAV格式,带“WHITE ALBUM2 Original Soundtrack ~setsuna~ mcdisc”总大小:715MB)
54929fc49da96cf298b8aee1c7f44fb0#2d0da21ec93991b1dea37e6ab98515a7#750638447#[EAC] [120824] WHITE ALBUM2 Original Soundtrack ~setsuna~ (wav+cue+png+mcdisc).rar
回复

使用道具 举报

 楼主| 发表于 2022-1-12 11:37:20 | 显示全部楼层

[转载][SACD Rip][140326][TVアニメ WHITE ALBUM 2 VOCAL COLLECTION][KIGA-23]

本帖最后由 otomene 于 2022-1-12 12:38 编辑

CD封面,歌曲信息。



百度网盘秒传:(总大小3.01GB)
7b59d57521c9f0fa9090ae7fa8583210#f244941a587844a1c15b3edd834deecb#3232908491#[SACD Rip][140326][TVアニメ WHITE ALBUM2 VOCAL COLLECTION][KIGA-23].zip
回复 支持 反对

使用道具 举报

 楼主| 发表于 2022-1-12 11:37:39 | 显示全部楼层

[转载][度盘秒传][WHITE ALBUM 相关歌曲等][全无损+BK][?MB]

本帖最后由 otomene 于 2022-1-12 13:44 编辑

单曲:[090121] 「深愛」/水樹奈々 (flac+jpg)


百度秒传:(FLAC格式,大小:115MB)
25fa0157711117db07e24b3cc7683960#11533f9656d37291154e0ea55778748e#121115405#[090121] 「深愛」/水樹奈々 (flac+jpg).zip

角色歌:[090401] キャラクターソング 森川由綺(CV.平野綾)「WHITE ALBUM」 (flac+webp)



百度秒传:(FLAC格式,大小119MB)
861a39b852ee78969423c3aa6da88744#f7b71199f63d23455d20b07d2d488a3a#125206179#[090401] キャラクターソング 森川由綺(CV.平野綾)「WHITE ALBUM」 (flac+webp).zip

角色歌:[090408] キャラクターソング 緒方理奈(CV.水樹奈々)「SOUND OF DESTINY」 (flac+webp)



百度秒传:(FLAC格式,大小:136MB)
65f166d17689649b1f24d65e2fcdb4a5#f31f95f0b108141caa743b73f43c64ab#143067756#[090408] キャラクターソング 緒方理奈(CV.水樹奈々)「SOUND OF DESTINY」 (flac+webp).zip

角色歌:[100101] キャラクターソング 緒方理奈(CV.水樹奈々)「POWDER SNOW」 (flac+jpg)


百度秒传:(FLAC格式,大小:133MB)
b74384a25c699d0b6b15968f79d0621b#ce79433bdede3d6520bb20d4cd2918b0#140237962#[100101] キャラクターソング 緒方理奈(CV.水樹奈々)「POWDER SNOW」 (flac+jpg).zip

[100324] WITHE ALBUM キャラクターソングBEST&サウンドトラック (flac+webp)


百度秒传:(FLAC格式,大小:579MB)
50aa2168cb057fe152c09b007c9bbb22#58c392ad9771f0fe8b964a9a73d175f6#607954724#[100324] キャラクターソングBEST&サウンドトラック (flac+webp).zip

[980814] 「WHITE ALBUM」ORIGINAL SOUND TRACK (flac)
内含曲目:
  TRACK 01 AUDIO
    TITLE "あの頃のように"
    PERFORMER "石川真也"
    INDEX 01 00:00:00

  TRACK 02 AUDIO
    TITLE "WHITE ALBUM"
    PERFORMER "森川由綺"
    INDEX 01 01:24:02

  TRACK 03 AUDIO
    TITLE "朝陽"
    PERFORMER "石川真也"
    INDEX 01 03:35:65

  TRACK 04 AUDIO
    TITLE "森川由綺"
    PERFORMER "石川真也"
    INDEX 01 06:31:55

  TRACK 05 AUDIO
    TITLE "緒方理奈"
    PERFORMER "下川直哉"
    INDEX 01 08:44:40

  TRACK 06 AUDIO
    TITLE "澤倉美咲"
    PERFORMER "石川真也"
    INDEX 01 11:19:55

  TRACK 07 AUDIO
    TITLE "河島はるか"
    PERFORMER "中上和英"
    INDEX 01 14:01:15

  TRACK 08 AUDIO
    TITLE "観月マナ"
    PERFORMER "石川真也"
    INDEX 01 16:47:32

  TRACK 09 AUDIO
    TITLE "篠塚弥生"
    PERFORMER "中上和英"
    INDEX 01 18:37:10

  TRACK 10 AUDIO
    TITLE "フランク長瀬"
    PERFORMER "下川直哉"
    INDEX 01 21:12:10

  TRACK 11 AUDIO
    TITLE "出逢いの街"
    PERFORMER "石川真也"
    INDEX 01 23:18:30

  TRACK 12 AUDIO
    TITLE "聖夜"
    PERFORMER "石川真也"
    INDEX 01 25:30:70

  TRACK 13 AUDIO
    TITLE "ひとときの休息"
    PERFORMER "石川真也"
    INDEX 01 26:40:25

  TRACK 14 AUDIO
    TITLE "TENSION"
    PERFORMER "石川真也"
    INDEX 01 28:37:27

  TRACK 15 AUDIO
    TITLE "WINTER VACATION"
    PERFORMER "石川真也"
    INDEX 01 30:27:07

  TRACK 16 AUDIO
    TITLE "SOUND OF DESTINY"
    PERFORMER "緒方理奈"
    INDEX 01 32:38:47

  TRACK 17 AUDIO
    TITLE "ぬくもり"
    PERFORMER "石川真也"
    INDEX 01 34:38:70

  TRACK 18 AUDIO
    TITLE "星を見上げて"
    PERFORMER "石川真也"
    INDEX 01 35:35:02

  TRACK 19 AUDIO
    TITLE "FILL YOU"
    PERFORMER "石川真也"
    INDEX 01 38:47:40

  TRACK 20 AUDIO
    TITLE "冷たい雨"
    PERFORMER "中上和英"
    INDEX 01 40:21:52

  TRACK 21 AUDIO
    TITLE "WHITE ALBUM PIANO"
    PERFORMER "石川真也"
    INDEX 01 42:21:34

  TRACK 22 AUDIO
    TITLE "POWDER SNOW"
    PERFORMER "AKKO"
    INDEX 01 44:06:37

百度秒传:(FLAC格式,大小:266MB)
0423d935b6df5dc3ac81e4b74ae92c0d#e0b66372f6a902150dc669536158a65b#279733822#[980814] 「WHITE ALBUM」ORIGINAL SOUND TRACK (flac) .zip
[幸运际遇] otomene成功开发了10000个妹子的M属性,得到不是人的超S笨蛋的称号,得到11 星空币 幸运榜 / 衰神榜
回复 支持 反对

使用道具 举报

发表于 2022-1-13 11:36:02 | 显示全部楼层
听过,没意思
回复 支持 反对

使用道具 举报

您需要登录后才可以回帖 登录 | 注册

本版积分规则

小黑屋|Archiver|星空网

Powered by Discuz! , Design by Seraphoenix && 北北″.

GMT+8, 2022-1-23 07:14 , Processed in 0.043953 second(s), 28 queries .

Copyright © 2009 - ∞ Seikuu. All Rights Reserved.

快速回复 返回顶部 返回列表